#TITLE:Adolescence;
#SUBTITLE:;
#ARTIST:Kagamine Rin & Len;
#TITLETRANSLIT:;
#SUBTITLETRANSLIT:;
#ARTISTTRANSLIT:;
#CREDIT:;
#BANNER:Kagamine Rin & Len - Adolescence-banner.jpg;
#BACKGROUND:Kagamine Rin & Len - Adolescence-bg.jpg;
#LYRICSPATH:Kagamine Rin & Len - Adolescence.lrc;
#CDTITLE:CDTitle.png;
#MUSIC:Kagamine Rin & Len - Adolescence.ogg;
#OFFSET:0.620;
#SAMPLESTART:54.880;
#SAMPLELENGTH:12.000;
#SELECTABLE:YES;
#BPMS:0.000=147.000;
#STOPS:;
#BGCHANGES:;
// cache tags:
#FIRSTBEAT:4.000;
#LASTBEAT:232.000;
#SONGFILENAME:songs/Vocaloid Party/Kagamine Rin & Len - Adolescence/Kagamine Rin & Len - Adolescence.sm;
#HASMUSIC:1;
#HASBANNER:1;
#MUSICLENGTH:94.675;
// end cache tags

//---------------dance-single - ----------------
#NOTES:
     dance-single:
     :
     Challenge:
     10:
     0.818,0.858,0.391,0.486,0.613,459.000,37.000,46.000,13.000,0.000:

0000
0000
0000
0000
,
2002
0000
0000
0000
0000
0000
0000
0000
0003
0000
0000
0000
0001
0000
0001
3000
,
0202
M000
0000
0000
0000
0000
0000
0000
0300
0000
0000
0000
0100
0000
0100
0003
,
0220
000M
0000
0000
0030
0000
0010
0010
,
0310
1000
0010
0100
0010
1000
0010
0000
0100
0000
0001
0010
0100
0000
1000
0000
,
1010
0000
0000
0000
0100
0001
0010
0100
1000
0010
1000
0001
0100
0000
0010
0000
,
1000
0000
0000
0000
0010
0100
0001
0010
0100
1000
0010
0100
0001
0000
0010
0000
,
0001
0000
0000
0000
1000
0100
1000
0010
0100
0001
0100
0010
1000
0000
0100
0000
,
1100
0000
0000
0010
0001
0000
1000
0000
0100
0000
0001
0000
1000
0001
0100
0000
,
0101
0000
0100
0010
1000
0010
0100
0001
,
0010
0100
0010
0001
0100
0010
1000
0100
,
1000
0000
0010
0000
0100
0000
0001
0000
1000
0000
0001
0000
0010
0100
0000
0000
,
1000
0000
0000
0010
0100
0000
0010
0000
1000
0000
0100
0000
0010
0001
1000
0001
,
1001
0000
0000
0200
0010
0000
0010
0000
0310
2000
0000
3000
0110
0000
0100
0000
,
1010
0000
0000
0002
0100
0000
0100
0000
0103
0020
0000
0030
0101
0000
0010
0000
,
1010
0000
0000
2000
0001
0000
0001
0000
3001
0200
0000
0300
1100
0000
0100
1000
,
0001
0000
0010
0100
0010
0000
0000
0001
0010
0000
0001
0000
0100
0010
1000
0100
,
0010
0000
0100
0000
1000
0000
0010
0000
0100
0001
0000
0100
0000
0000
0100
0000
,
0010
0000
1000
0000
0010
0000
1000
0000
0010
0100
0000
0010
0000
0000
0010
0000
,
1000
0000
0001
0000
0100
0000
0010
0000
1000
0010
0000
1000
0000
0000
1000
0010
,
0200
0010
0320
1000
1030
0000
0011
0000
,
0001
0000
0100
0000
0010
0000
1000
0000
0100
1000
0100
0000
1000
0000
0001
0000
,
1000
0000
0001
0000
0100
0000
0001
0000
1000
0001
1000
0000
0010
0000
1000
0000
,
0001
0000
0100
0000
0001
0000
0100
0000
0001
0010
0001
0000
0100
0000
0010
0000
,
0100
0001
0100
0010
1000
0100
1000
0000
0100
0010
0001
0010
0100
0000
0000
0000
,
1100
0000
0000
0000
0010
1000
0200
0000
0000
0000
0300
0000
0011
0000
0001
0000
,
0100
0010
0200
0000
0310
2000
3010
00M0
,
1002
0000
0010
0010
0000
0003
0110
0000
,
0010
0000
0100
0000
0001
0000
0100
0000
0010
1000
0010
0000
1000
0001
0010
0000
,
0100
0000
1000
0000
0001
0000
1000
0010
1000
0010
1000
0000
0100
0000
0001
0000
,
0100
0000
0010
0000
1000
0000
0010
0100
0010
0100
0010
0000
1000
0000
0001
0000
,
1000
0010
0100
0002
0000
1003
0010
0100
,
0101
0000
0000
0000
0110
0000
0000
0000
0010
1000
0100
0010
0001
0010
0100
0000
,
0010
0001
0010
0001
1000
0010
0100
0000
0001
0100
0010
0000
1000
0100
1000
0000
,
0020
0000
0000
0000
2030
0000
0000
0000
3010
0100
0010
0100
0001
0000
0000
0000
,
0200
0000
0000
0001
0000
0000
0010
0000
0301
0000
0010
0000
1010
0000
0000
0000
,
0020
0000
0000
1000
0000
0000
0130
0000
0110
0000
0000
0000
1100
0000
0000
0000
,
1000
0000
0100
0000
0010
0000
0100
0010
0100
0000
0000
0000
0101
0000
0010
0000
,
2010
0000
0000
0100
0000
3000
0110
0000
0001
0000
0000
0110
0000
0000
0100
0000
,
0102
0000
0000
1000
0000
0003
1001
0000
0010
0000
1010
0000
0201
0000
000M
0000
,
0302
0000
0000
0000
1003
0000
0010
1000
0010
0000
0100
0000
0010
0000
1000
0000
,
0001
0010
0001
0100
0010
0100
0010
1000
0100
0000
0100
0000
0010
0001
1000
0000
,
0002
0000
0000
0000
0203
0000
0000
0000
0310
1000
0010
1000
0100
0000
0000
0000
,
0020
0000
0000
0001
0000
0000
0100
0000
0031
0000
1000
0000
1010
0000
0000
0000
,
2000
0000
0000
0001
0000
0000
3100
0000
1010
0000
0000
0000
0100
0000
0010
0000
,
0100
0000
0010
0000
1000
0000
0001
0010
0100
1000
0100
0000
0010
0000
0100
0000
,
2020
0000
3030
0220
0000
0330
2002
3003
0101
0000
1000
0000
0010
0000
1000
0000
,
0002
0000
0000
0103
0000
0000
1100
0000
0001
0000
1000
0010
0000
1000
0010
0000
,
0100
0000
0001
0010
0100
0000
1000
0010
0100
0000
0001
0000
1000
0001
0100
0000
,
0001
0100
0010
1000
0010
0100
0001
0000
0100
0010
1000
0000
0100
0010
0100
0010
,
0001
0000
1000
0000
0010
0000
1000
0100
0000
0100
1000
0100
0010
0000
0010
0000
,
0001
0000
1000
0000
0010
1000
0010
0100
0001
0010
0100
1000
0010
0100
0001
0000
,
0010
0000
0001
0000
1000
0010
0000
0100
0000
0010
0000
0100
0010
1000
0100
0000
,
0010
0000
0001
0000
0100
0010
0000
1000
0000
0010
0000
1000
0100
0010
0001
0100
,
0020
0000
0000
0000
M000
0000
2000
0000
0000
0000
0000
3030
0002
0000
M0M0
0000
,
0020
0000
0000
0000
0000
0000
0000
0033
0200
0000
00MM
0000
1000
0000
M000
0000
,
1000
0000
M000
0000
0000
0000
2000
0000
0000
0000
0000
3300
0002
0000
MM00
0000
,
0200
0000
0000
0000
,
0303
0000
0000
0000
;

//---------------dance-single - ----------------
#NOTES:
     dance-single:
     :
     Beginner:
     1:
     0.098,0.150,0.032,0.000,0.000,62.000,3.000,0.000,0.000,0.000:
0000
0000
0000
0000
,
0000
0000
0000
0000
,
0000
0000
0000
0000
,
0000
0000
0000
0000
,
0100
0000
0000
0000
,
1001
0000
0000
0000
,
0001
0000
0000
0000
,
1000
0000
0000
0000
,
0001
0000
0000
0000
,
0110
0000
0000
0000
,
0100
0000
0000
0000
,
0010
0000
0000
0000
,
0100
0000
0000
0000
,
0001
0000
0001
0000
,
0001
0000
0001
0000
,
0001
0000
0001
0000
,
0001
0000
0001
0000
,
1000
0000
0000
0000
,
0001
0000
0000
0000
,
0100
0000
0000
0000
,
0010
0000
0000
0000
,
1000
0000
0000
0000
,
0100
0000
0000
0000
,
0010
0000
0000
0000
,
0001
0000
0000
0000
,
1000
0000
0000
0000
,
0100
0000
0000
0000
,
1000
0000
0000
0000
,
0001
0000
0000
0000
,
0100
0000
0100
0000
,
0010
0000
0010
0000
,
1000
0000
0000
0000
,
0001
0000
0000
0000
,
0100
0000
0000
0000
,
1001
0000
0000
0000
,
0001
0000
0000
0000
,
1000
0000
0000
0000
,
0010
0000
0000
0000
,
0100
0000
0000
0000
,
0010
0000
0000
0000
,
1000
0000
0000
0000
,
0001
0000
0001
0000
,
0001
0000
0000
0000
,
1000
0000
0000
0000
,
0010
0000
0000
0000
,
0100
0000
0000
0000
,
0010
0000
0000
0000
,
1000
0000
0000
0000
,
0010
0000
0000
0000
,
0100
0000
0000
0000
,
0001
0000
0000
0000
,
1000
0000
0000
0000
,
0001
0000
0000
0000
,
0100
0000
0000
0000
,
0010
0000
0000
0100
,
0000
0000
0001
0000
,
1000
0000
0000
0001
;

//---------------dance-single - ----------------
#NOTES:
     dance-single:
     :
     Easy:
     3:
     0.204,0.330,0.137,0.201,0.000,103.000,13.000,19.000,0.000,0.000:
0000
0000
0000
0000
,
0000
0000
0000
0000
,
0000
0000
0000
0000
,
0000
0000
0000
0000
,
0020
0000
0230
0000
,
0302
0000
0000
0000
,
0010
0000
0000
0000
,
0010
0000
0000
0000
,
0010
0000
0000
0000
,
0013
0000
0000
0001
,
1000
0000
0000
0000
,
1001
0000
0000
0100
,
0010
0000
0000
0000
,
0110
0000
1000
0000
,
1100
0000
0001
0000
,
0101
0000
0010
0000
,
0011
0000
1100
0000
,
2000
0000
3001
0000
,
0200
0000
0310
0000
,
2000
0000
3100
0000
,
2000
3002
0203
0300
,
0101
0000
0001
0000
,
2000
0000
3001
0000
,
0020
0000
0130
0000
,
1000
0010
0010
0000
,
0100
0000
0000
0001
,
0100
0000
0001
0000
,
2000
0000
3000
0002
,
0203
0320
2030
3002
,
0103
0000
0010
0000
,
1000
0000
0001
0000
,
0100
0000
0010
0000
,
1010
0000
0110
0000
,
0000
0000
0000
0000
,
0100
0000
0010
0000
,
1000
0000
0100
0000
,
0010
0000
0100
0000
,
2000
0000
3001
0001
,
0001
0000
0100
0000
,
0010
0000
1000
0000
,
0010
0000
0100
0000
,
0001
0010
0010
0000
,
0100
0000
1000
0000
,
0001
0000
0100
0000
,
0001
0000
2000
0000
,
3001
0001
0001
0000
,
0100
0000
0010
0000
,
1000
0000
0100
0000
,
0010
0000
0001
0000
,
1000
0000
0010
0000
,
0100
0000
0000
0110
,
0000
0000
0010
1000
,
0010
0000
0000
1010
,
0000
0000
0000
0000
,
0001
0000
0000
0011
,
0000
0000
0001
0100
,
0010
0000
0000
1010
;

//---------------dance-single - ----------------
#NOTES:
     dance-single:
     :
     Medium:
     5:
     0.430,0.521,0.243,0.401,0.000,224.000,23.000,38.000,0.000,0.000:
0000
0000
0000
0000
,
2000
0000
0000
0000
0000
0000
3100
0010
,
0002
0000
0000
0000
0000
0000
0013
0100
,
2000
0000
0000
0000
0000
0000
3100
0010
,
0002
0000
0023
0000
,
0130
0000
1000
0000
0010
0000
1000
0010
,
0100
0000
0010
0000
1000
0000
0001
0100
,
0010
0000
1000
0000
0001
0000
1000
0001
,
0100
0000
0010
0000
1000
0001
1000
0001
,
1000
0000
0110
0000
0100
0000
0010
1000
,
0010
0110
0010
1000
,
0010
0000
0100
0000
0001
0000
0010
0001
,
0010
0100
1000
0001
,
2000
3000
0000
0000
0020
0030
0000
0000
0200
0300
0000
0000
0020
0030
0000
0000
,
2000
3000
0000
0000
0020
0030
0000
0000
0200
0300
0000
0000
0001
0000
0100
0000
,
0010
0000
0000
0000
2000
3000
0000
0000
0002
0003
0000
0000
0020
0030
0000
0000
,
0011
0100
1000
1100
,
0100
0000
0010
0000
0001
0100
0001
0000
,
0100
0000
0010
0000
1000
0010
0100
0000
,
0010
0000
1000
0000
0001
0010
0100
0000
,
0010
0100
1000
0001
0200
0000
0310
0000
,
0100
0000
0001
0000
1000
0001
0100
0000
,
0010
0000
0100
0000
0001
0010
0001
0000
,
0010
0000
0100
0000
1000
0010
1000
0010
,
0200
0000
0010
0000
0001
0000
0301
1000
,
0010
0000
0000
0101
0000
0000
0010
0000
,
1000
0010
0100
0010
,
1000
0000
0000
1010
0000
0000
0010
0000
,
0100
0001
0100
0010
,
1000
0100
1000
0100
0000
0010
0100
0010
,
0100
0000
0010
0001
0000
0010
0001
0000
,
0002
0000
1000
1000
0000
0000
0000
0103
,
0110
0101
1001
0101
,
1000
0010
0100
0001
,
2000
0001
0010
3001
,
2002
0000
0000
0000
0000
0000
0000
3003
0110
0000
0000
0000
0110
0000
0000
0000
,
0001
0100
0001
0010
,
0100
0000
0000
0100
0010
0000
0000
0010
,
0001
0100
0001
0010
,
0100
1000
0100
0010
,
0001
0000
0000
0100
0010
0000
0100
0000
,
0002
0000
0000
0000
0000
0000
0000
0000
0200
0000
0000
0000
0000
0000
0000
0303
,
0020
1000
0100
0130
,
2020
0000
0000
0000
0000
0000
0000
3030
0101
0000
0000
0000
0101
0000
0000
0000
,
0001
0010
0100
0010
,
0100
0010
0100
0010
0001
0000
0000
0010
,
0100
0010
0100
0010
,
0001
0100
0001
1000
,
0001
1000
0010
0100
,
2200
0000
0000
0000
0000
0000
0000
3300
0220
0000
0000
0000
0000
0000
0000
0330
,
0022
0000
0000
0000
,
0000
0000
0000
0000
0000
0033
0000
0000
,
0010
0001
0200
0320
,
1030
0001
0100
0001
,
1000
0000
0000
0110
0000
0000
0022
0000
,
0000
0000
0000
0000
0000
0000
0000
0033
0100
0000
0000
0000
0001
0000
0000
0000
,
0100
0000
0000
1100
0000
0000
0220
0000
,
0000
0000
0000
0000
,
0330
0000
0000
0000
;

//---------------dance-single - ----------------
#NOTES:
     dance-single:
     :
     Hard:
     8:
     0.662,0.674,0.349,0.560,0.322,353.000,33.000,53.000,11.000,0.000:
0000
0000
0000
0000
,
1010
0000
0100
0010
0100
0000
0001
0100
,
0110
0000
1000
0100
0010
0000
0001
0100
,
0011
0000
0001
1000
0010
0000
0100
0010
,
1100
0000
0000
0010
0000
0000
0001
0000
0010
0000
0000
0100
0000
0000
1000
0000
,
1001
0000
0000
0000
1000
0010
1000
0000
0010
0000
0000
0000
0100
0000
0100
0000
,
0001
0000
0000
0000
0100
0001
0000
1000
0010
0000
0000
0000
1000
0000
1000
0000
,
0010
0000
0000
0000
0100
0001
0100
0001
0100
0000
0000
0000
0010
0000
1000
0000
,
0001
0000
0000
1000
0100
0000
0010
0000
0100
0000
0010
0000
0001
1000
0001
0000
,
0100
0010
1000
0100
0020
0000
0001
0000
,
0130
0010
0001
0010
0200
0000
0000
0010
,
0310
0000
0100
0000
1000
0000
0010
0000
0100
0000
0000
0000
0010
0100
0000
0000
,
0001
1000
0001
0100
0020
0000
0000
1000
,
1030
0000
1001
0000
0210
0000
0001
0300
,
0101
0000
1100
0000
1002
0000
0100
0003
,
1010
0000
0000
0000
0101
0000
0000
0010
2000
0000
0000
0000
0100
0000
3000
0000
,
0010
0100
1000
0010
1000
0100
0010
0000
,
0001
0000
1000
0000
0001
0000
0000
0000
1000
0001
0000
0100
0000
0000
0000
0000
,
0101
0000
0000
0000
1100
0000
0000
0000
1000
0010
0000
0100
0000
0000
0000
0000
,
0010
0000
0100
0000
0010
0000
0000
0000
1000
0001
0000
0010
0000
0000
0100
1000
,
0100
0000
2000
0M00
0002
00M0
3003
M00M
,
0110
0000
0000
0000
1010
0000
0000
0000
0010
0100
0000
0001
0000
0000
0000
0000
,
0100
0000
0001
0000
0100
0000
0000
0000
0010
0100
0000
0001
0000
0000
0000
0000
,
0020
0000
0000
0000
0130
0000
0000
0000
0010
0001
0000
1000
0000
0000
0010
0000
,
1000
0000
0010
0000
0100
0000
0010
0000
0100
0000
0000
0000
0001
0010
0000
0200
,
0000
0000
0000
0000
0300
0000
1000
0001
,
0010
0000
0100
0000
1000
0000
0000
0000
0021
0000
0000
0030
210M
0000
0000
3000
,
0M12
0000
0000
0003
01M0
0000
0010
0000
0000
0000
1000
0000
0010
0000
0000
0000
,
0010
0000
0100
0000
0001
0000
1000
0000
0100
0010
0000
0010
0100
0000
0000
0000
,
1000
0010
0100
0002
0000
0013
0100
1000
,
0100
0010
0001
0200
0000
0301
0010
0100
,
1000
0000
0010
1000
0010
1000
0010
0200
,
0002
0000
0300
0000
2003
0000
0000
0000
3100
0010
0100
0000
1000
0000
0000
0000
,
0001
0100
0001
0000
1000
0010
1000
0000
0001
0100
0001
0000
0010
0000
0100
0000
,
1020
0000
0000
0000
1000
0000
0000
0030
0201
0000
0000
0000
0001
0000
0000
0300
,
0010
0000
0000
1000
0000
0000
0100
0000
0010
0000
0000
0000
1100
0000
0000
0000
,
1000
0000
0000
0010
0000
0000
0100
0000
0001
0000
0000
0000
0101
0000
0000
0000
,
0200
0000
0000
0000
0000
0000
0310
1000
0010
0000
0000
0000
0000
0000
0200
0000
,
0310
0000
0000
0100
0000
0000
0002
0000
0103
0000
0000
0001
0000
0000
0200
0000
,
0301
0000
0000
0100
0000
0000
0200
0000
0320
0000
0000
0000
2000
0000
0030
0000
,
0200
0000
0000
0000
3300
0000
1000
0100
1000
0000
0001
0000
0001
0000
0100
0000
,
0100
0010
0100
0000
0001
1000
0001
0000
0100
0010
0100
0000
0010
0000
0000
0000
,
1002
0000
0000
0000
1000
0000
0000
0003
0210
0000
0000
0000
0010
0000
0000
0300
,
1000
0000
0000
0010
0000
0000
0100
0000
0010
0000
1000
0000
0001
0000
0000
0000
,
0200
0000
0000
0302
0000
0000
0203
0000
0302
0000
1000
0000
2003
0000
0000
0000
,
3010
0000
1000
0000
0001
0000
0100
0001
0100
0000
0000
0000
1010
0000
2000
0000
,
3002
0000
0000
0023
0000
0000
0230
0000
0320
0000
0000
0000
0032
0000
0000
0000
,
2003
0000
0000
3200
0000
0000
0320
0000
0230
0000
0000
0000
1300
0000
0000
0000
,
1010
0000
0000
0000
0000
0000
0001
0100
0001
0000
0000
0000
0010
0000
0100
0000
,
1000
0100
1000
0000
0001
0010
0001
0000
1000
0100
1000
0000
0100
0000
1000
0000
,
0010
0000
1000
0000
0100
0000
1000
0010
1000
0000
0010
0000
0100
0001
0010
0000
,
0001
0000
1000
0000
0010
0100
0000
0010
1000
0000
0100
0000
1000
0001
1000
0000
,
0010
0000
0100
0000
0001
0000
1000
0100
0010
0000
0100
0000
1000
0010
1000
0000
,
0010
0000
0100
0000
0001
0010
0000
0100
1000
0000
0001
0000
0100
0010
0100
0000
,
0101
0000
0000
0000
0000
0000
0110
0000
0000
0000
0000
0000
0220
0000
0000
0030
,
0320
0000
0M00
0000
0030
0000
0000
0000
2000
0000
0000
0000
0002
0000
0000
3003
,
0110
0000
M00M
0000
0000
0000
0101
0000
0000
0000
0000
0000
2002
0000
0000
0003
,
3002
M000
0000
0000
0000
0000
0000
0000
,
0003
0000
0000
0000
;
